#TITLE:High High;
#SUBTITLE:SDO China lv19 - [N]hok[Q] Simfile;
#ARTIST:Big Bang;
#TITLETRANSLIT:;
#SUBTITLETRANSLIT:;
#ARTISTTRANSLIT:;
#CREDIT:[N]hok[Q];
#BANNER:bn-high^2.png;
#BACKGROUND:bg-high^2.png;
#LYRICSPATH:;
#CDTITLE:cd-high^2.png;
#MUSIC:High High.mp3;
#OFFSET:-0.016;
#SAMPLESTART:16.631;
#SAMPLELENGTH:14.769;
#SELECTABLE:YES;
#DISPLAYBPM:130.000;
#BPMS:0.000=130.005,1.000=129.999,6.000=130.005,7.000=129.999,13.000=130.005,14.000=129.999,19.000=130.005,20.000=129.999,26.000=130.005,27.000=129.999,34.000=130.005,35.000=129.999,42.000=130.005,43.000=129.999,50.000=130.005,51.000=129.999,58.000=130.005,59.000=129.999,66.000=130.005,67.000=129.999,68.000=86.512,68.500=261.390,69.000=129.999,74.000=130.005,75.000=129.999,82.000=130.005,83.000=129.999,90.000=130.005,91.000=129.999,96.000=252.632,96.125=52.933,96.250=252.632,96.500=264.511,96.625=51.480,96.750=264.414,97.000=258.435,97.125=52.197,97.250=258.342,97.500=252.632,97.625=87.527,97.750=86.186,97.875=264.317,98.000=129.999,99.000=86.512,99.500=261.390,100.000=130.005,101.000=129.999,104.000=130.005,105.000=129.999,108.000=130.005,109.000=129.999,112.000=130.005,113.000=129.999,116.000=130.005,117.000=129.999,120.000=130.005,121.000=129.999,124.000=130.005,125.000=129.999,128.000=130.005,129.000=129.999,132.000=130.005,133.000=129.999,135.000=86.512,135.500=261.390,136.000=130.005,137.000=129.999,139.000=86.181,139.500=264.463,140.000=130.005,141.000=129.999,143.000=86.512,143.500=261.390,144.000=65.001,145.000=129.999,147.000=130.005,148.000=129.999,151.000=130.005,152.000=129.999,155.000=130.005,156.000=129.999,159.000=130.005,160.000=129.999,163.000=130.005,164.000=129.999,167.000=130.005,168.000=129.999,171.000=130.005,172.000=129.999,175.000=130.005,176.000=129.999,177.000=86.512,177.500=261.390,178.000=86.512,178.500=261.390,179.000=130.005,180.000=129.999,183.000=130.005,184.000=129.999,187.000=130.005,188.000=129.999,223.000=258.435,223.125=52.197,223.250=258.342,223.500=258.435,223.625=52.197,223.750=258.342,224.000=252.632,224.125=51.956,224.250=264.414,224.500=264.511,224.625=51.480,224.750=264.414,225.000=129.999,226.000=86.181,226.500=264.463,227.000=129.999,262.000=86.512,262.500=261.390,263.000=129.999,266.000=86.512,266.500=261.390,267.000=129.999,270.000=86.512,270.500=261.390,271.000=129.999,272.000=43.333,272.500=129.999;
#STOPS:;
#BGCHANGES:;
// cache tags:
#FIRSTBEAT:3.000;
#LASTBEAT:272.500;
#SONGFILENAME:Songs/SDO pack 5/High High/High High.sm;
#HASMUSIC:1;
#HASBANNER:1;
#MUSICLENGTH:129.192;
// end cache tags

//---------------dance-single - ----------------
#NOTES:
     dance-single:
     :
     Hard:
     19:
     1.000,1.000,1.000,0.488,0.464,632.000,516.000,63.000,0.000,243.000:
0000
0000
0000
0000
0000
0000
0021
2130
,
3111
0000
0000
0000
1110
0000
0011
0000
1000
0000
0110
1000
0112
1000
0023
0000
,
1130
0000
0000
0000
0111
0000
1100
0000
0001
0000
0110
0001
1120
0000
2131
0000
,
3110
0000
0000
0000
0111
0000
1100
0110
0001
0000
1100
0000
0111
0000
2100
0000
,
0210
3012
0000
1023
0301
1130
2110
0000
,
3011
0000
0110
0000
1110
0110
1100
0110
0011
0000
0110
0011
1110
0000
0001
0001
,
0110
0000
0110
0000
1110
0000
0011
0000
0110
0000
0110
0011
1110
0000
0001
0001
,
0110
0000
1100
0000
0111
1100
0001
0110
0011
0000
0110
1100
0111
0000
1000
1000
,
0111
1110
0000
0111
1110
0011
1110
0111
,
1100
0000
0001
0000
0110
0000
0011
0000
0110
0000
1101
0000
0110
1000
1000
0000
,
0011
0000
0110
0000
0011
0000
0110
1100
0001
0000
0110
0001
1100
0001
0110
0011
,
0110
0000
0001
0000
1100
0000
0110
0000
0011
0110
0001
0001
1100
0001
0110
0000
,
1100
0000
0110
0000
1000
0011
0110
0000
0001
0000
2100
0000
3210
0000
0311
0110
,
1100
0000
0110
0000
0111
0000
0110
0000
1100
0000
0001
0000
1110
0000
0110
0001
,
0110
0000
1100
0000
0111
0000
0011
0000
0110
0000
1000
0000
0111
0000
0110
0001
,
1100
0000
1100
0000
0111
0000
0110
0000
0011
0000
1000
0000
0111
0000
1100
0001
,
1110
0000
0001
0000
1110
0000
0011
0000
1110
0000
0011
0000
0110
1100
0110
1000
,
0112
0000
0000
0000
1113
0000
1100
0000
1100
0110
1100
0000
0111
0000
0011
1000
,
0112
0000
1000
0000
1113
0000
1100
0000
0001
0000
1100
0000
0111
0000
0011
1000
,
0121
0000
1100
0000
1131
0000
0110
0000
0011
0000
0011
0000
1110
0000
0110
1100
,
0112
0000
0110
0000
1103
1100
0011
0011
1000
0000
0011
0000
1110
0000
0011
1000
,
0112
0000
1000
0000
1113
0000
0001
0000
1100
0000
0110
0000
0111
0000
0110
1000
,
0112
0000
1000
0000
1113
0000
1100
0110
0011
0000
0011
0000
1110
0000
1100
0001
,
2100
0000
0110
0000
3111
0000
0011
0110
1100
0000
0110
0000
1110
0000
0110
0001
,
1110
0000
1101
0000
1110
0000
0111
0000
1110
0111
1101
1011
1112
0000
0000
0000
,
1113
0000
0001
0000
1110
0000
0111
0000
1000
0000
0011
0000
2110
0000
0011
0110
,
3011
0000
0001
0110
1110
0000
0011
0000
1000
0000
0110
0000
2110
0000
0110
0011
,
3111
0000
1000
0000
0111
0000
1110
0000
0001
0000
0110
0000
0112
0000
0110
1100
,
0113
0000
0001
1100
0111
1100
0110
0000
0001
0000
0110
0000
0112
0000
1100
0110
,
1113
0000
0001
0000
1110
0000
0111
0000
1000
0000
0011
0000
0112
0000
1100
0110
,
1103
0110
1000
0110
0111
0000
1100
0000
0001
0000
0110
0000
0112
0000
0110
1100
,
0113
1100
0001
0000
1110
0000
0110
1100
0001
0000
0110
0000
0112
0000
0110
1100
,
0113
0000
0110
1100
0111
0110
0011
0000
1000
0000
0110
0000
2110
0000
0110
0011
,
3110
0011
1110
1100
0110
0001
0112
0000
,
0113
0110
1110
0110
1100
0001
2110
0000
,
3011
1100
0111
0110
1100
0001
2110
0000
,
3222
0000
0333
0011
0110
1100
0110
1100
,
0111
0000
0110
0000
1100
0110
0000
0011
1110
0000
0001
0001
1100
0000
0110
0000
,
0111
0000
1100
0000
1100
0000
0110
1100
0111
0000
1000
1000
0011
0000
0110
0000
,
1110
0000
0110
1100
0110
0011
0000
0110
0111
0000
1000
1000
0111
0000
1110
0000
,
0000
1110
0111
0000
1110
0011
0110
1100
,
0110
0000
0011
0000
0011
0000
1000
1000
0110
0001
1100
0000
0011
0000
0110
0000
,
0110
1100
0001
0000
0110
0000
1000
1000
0011
1000
0110
0000
1100
0110
0011
0110
,
1100
0000
0110
0000
1100
0000
1100
0001
0110
1000
0011
0000
0210
0000
0000
0000
,
0312
0000
1123
0000
1132
0000
0113
1100
,
1110
0000
0110
0000
0011
0000
0011
0000
1110
0000
1100
0001
0110
0000
0011
0000
,
1110
0000
0001
0000
1100
0000
0110
0000
0111
0000
0110
0001
1100
0000
1100
0000
,
0111
0000
1000
0000
0110
0000
1100
0000
0111
0000
1100
0001
1110
0000
0012
0000
,
1100
0000
0123
0000
2000
0000
0131
0000
0110
0000
0011
0000
3112
0000
1100
0110
,
1113
0000
1100
0000
0001
0000
0110
0000
0111
0000
0011
1000
0112
0000
1100
0110
,
1113
0000
0011
0000
1000
0000
0110
1100
0111
1100
0110
0011
0112
0000
1100
0110
,
1113
0011
0110
0011
0110
0000
1100
0110
0111
1100
0110
0011
2110
0000
0011
0110
,
3011
0011
1100
1100
0001
0000
0110
0000
0111
0000
1100
0001
2110
0000
0110
0000
,
3111
0000
1100
0000
0001
0000
0110
0000
0111
0000
0011
1000
0112
0000
1100
0000
,
1113
0000
0110
0000
1000
0000
0011
0000
0111
0000
1100
0001
2110
0000
0001
0000
,
3111
0000
1100
0000
1100
0000
0110
0000
1110
0000
0011
1000
0111
0000
1101
0000
,
1011
0111
0112
0000
2113
0000
3111
1000
,
0111
0000
1110
0000
0001
0000
0010
0000
2110
0000
0110
0011
3110
1100
0001
0110
,
1110
0000
0110
0000
1000
0000
1101
0000
2110
0000
0011
0110
3111
0000
1000
0000
,
0111
0000
1110
0000
0001
0000
0110
0000
2110
0000
0110
0011
3110
1100
0001
0110
,
1110
0011
0110
0000
1000
0000
0011
0000
0112
0000
1100
0110
1113
0000
0001
0000
,
1110
0000
0111
0000
1000
0000
0110
0000
2110
0000
0011
0110
3011
0110
0001
1100
,
0111
0000
0110
0000
0001
0000
1100
0000
0112
0000
0110
1100
0113
1100
0001
0000
,
1110
0011
0110
0000
0001
0000
1100
0000
0112
0000
1100
0110
1103
0110
0001
1100
,
0111
0110
0011
0000
0110
0000
0011
0000
0111
0000
1100
0110
1100
0000
0110
0000
,
1110
0110
1100
0001
2110
0000
3110
1100
,
1110
0110
1100
0001
2110
0000
3011
0110
,
1110
1100
0110
1000
0112
0000
2213
0000
,
0000
3311
0000
0000
0000
0000
0000
0000
,
0000
0000
0000
0000
,
0000
0000
0000
0000
,
0000
0000
0000
0000
,
0000
0000
0000
0000
,
0000
0000
0000
0000
,
0000
0000
0000
0000
,
0000
0000
0000
0000
,
0000
0000
0000
0000
,
0000
0000
0000
0000
;

//---------------dance-solo - ----------------
#NOTES:
     dance-solo:
     :
     Hard:
     19:
     1.000,1.000,1.000,0.488,0.468,633.000,518.000,63.000,0.000,245.000:
000000
000000
000000
000000
000000
000000
000201
210300
,
301011
000000
000000
000000
110100
000000
000101
000000
100000
000000
010010
100000
001012
100000
001023
000000
,
110030
000000
000000
000000
010101
000000
110000
000000
000001
000000
001010
000001
101020
000001
210030
000000
,
310100
000000
000000
000000
010011
000000
101000
001010
000001
000000
110000
000000
010101
000000
210000
000000
,
002010
300012
000000
100203
003001
110300
201010
000000
,
300011
000000
010100
000000
110100
001010
101000
001010
000011
000000
010100
000101
110100
000000
000001
000001
,
001010
000000
001010
000000
110010
000000
000101
000000
010100
000000
001010
000011
101010
000000
000001
000001
,
010100
000000
110000
000000
001011
101000
000001
010010
000101
000000
010100
110000
001011
000000
100000
100000
,
010101
110100
000000
001011
101010
000101
110100
001011
,
101000
000000
000001
000000
010100
000000
000101
000000
010010
000000
101001
000000
001010
100000
100000
000000
,
000101
000000
010100
000000
000011
000000
001010
101000
000001
000000
010100
000001
110000
000001
001010
000011
,
001010
000000
000001
000000
110000
000000
010100
000000
000101
010010
000001
000001
101000
000001
001010
000000
,
110000
000000
010100
000000
100000
000011
001010
000000
000001
000000
210000
000000
320100
000000
030101
001010
,
101000
000000
010010
000000
010101
000000
010100
000000
101000
000000
000001
000000
110010
000000
010100
000001
,
010100
000000
101000
000000
001011
000000
000101
000000
010100
000000
100000
000000
010011
000000
001010
000001
,
101000
000000
110000
000000
010101
000000
010100
000000
000011
000000
100000
000000
001011
000000
101000
000001
,
110010
000000
000001
000000
110100
000000
000101
000000
110010
000000
000011
000000
001010
101000
001010
100000
,
010102
000000
000000
000000
101013
000000
101000
000000
110000
010100
110000
000000
001011
000000
000011
100000
,
010102
000000
100000
000000
101013
000000
101000
000000
000001
000000
110000
000000
010101
000000
000101
100000
,
010021
000000
101000
000000
101031
000000
010010
000000
000101
000000
000101
000000
101010
000000
001010
110000
,
010102
000000
010100
000000
101003
101000
000011
000011
100000
000000
000101
000000
110100
000000
000011
100000
,
010012
000000
100000
000000
110103
000000
000001
000000
101000
000000
001010
000000
010101
000000
010100
100000
,
001012
000000
100000
000000
110103
000000
101000
001010
000011
000000
000101
000000
110100
000000
101000
000001
,
201000
000000
010010
000000
310101
000000
000101
001010
101000
000000
010010
000000
110100
000000
010100
000001
,
101010
000000
101001
000000
110100
000000
010101
000000
101010
001011
101001
100011
110102
000000
000000
000000
,
101013
000000
000001
000000
110100
000000
010101
000000
100000
000000
000011
000000
201010
000000
000101
010100
,
300101
000000
000001
001010
101010
000000
000011
000000
100000
000000
010100
000000
210100
000000
001010
000011
,
301011
000000
100000
000000
010101
000000
110100
000000
000001
000000
001010
000000
001012
000000
010100
110000
,
010103
000000
000001
101000
001011
101000
010010
000000
000001
000000
010100
000000
010102
000000
101000
001010
,
101013
000000
000001
000000
110100
000000
010101
000000
100000
000000
000011
000000
010012
000000
101000
010100
,
110003
010100
100000
010010
001011
000000
101000
000000
000001
000000
010100
000000
010102
000000
001010
101000
,
001013
110000
000001
000000
110100
000000
010100
110000
000001
000000
001010
000000
001012
000000
010100
110000
,
010103
000000
001010
101000
001011
010100
000101
000000
100000
000000
010010
000000
201010
000000
001010
000011
,
310100
000101
101010
101000
010100
000001
001012
000000
,
010103
010100
101010
001010
110000
000001
210100
000000
,
300011
101000
001011
010100
101000
000001
210100
000000
,
302022
000000
003033
000101
010100
101000
001010
110000
,
010101
000000
010100
000000
101000
001010
000000
000101
110100
000000
000001
000001
101000
000000
001010
000000
,
010101
000000
110000
000000
101000
000000
001010
110000
010101
000000
100000
100000
000011
000000
001010
000000
,
101010
000000
010100
110000
010100
000011
000000
001010
001011
000000
100000
100000
010101
000000
110100
000000
,
000000
101010
001011
000000
110100
000101
001010
101000
,
010010
000000
000101
000000
000101
000000
100000
100000
001010
000001
101000
000000
000011
000000
010100
000000
,
010100
110000
000001
000000
001010
000000
100000
100000
000101
100000
010100
000000
101000
001010
000011
010010
,
110000
000000
010100
000000
101000
000000
101000
000001
010010
100000
000101
000000
020100
000000
000000
000000
,
030012
000000
101203
000000
110302
000000
001013
101000
,
110100
000000
010100
000000
000011
000000
000011
000000
101100
000000
101000
000001
010010
000000
000101
000000
,
110100
000000
000001
000000
101000
000000
001010
000000
010101
000000
010100
000001
101000
000000
101000
000000
,
010011
000000
100000
000000
010100
000000
110000
000000
001011
000000
101000
000001
110100
000000
000102
000000
,
101000
000000
001023
000000
210000
000000
010031
000000
010100
000000
000101
000000
301012
000000
101000
010010
,
110103
000000
110000
000000
000001
000000
001010
000000
001011
000000
000101
100000
010102
000000
101000
001010
,
101013
000000
000011
000000
100000
000000
010100
110000
010101
101000
001010
000011
010012
000000
110000
010100
,
110103
000101
001010
000011
001010
000000
110000
010100
010101
101000
001010
000011
210010
000000
000101
010100
,
300011
000011
101000
101000
000001
000000
010100
000000
010101
000000
101000
000001
201010
000000
010100
000000
,
310101
000000
101000
000000
000001
000000
010010
000000
010101
000000
000101
100000
001012
000000
101000
000000
,
110103
000000
010100
000000
100000
000000
000011
000000
001011
000000
101000
000001
210100
000000
000001
000000
,
310011
000000
101000
000000
101000
000000
010010
000000
110100
000000
000101
100000
001011
000000
101001
000000
,
100011
010101
010102
000000
201013
000000
310101
100000
,
001011
000000
101010
000000
000001
000000
000100
000000
210100
000000
010010
000011
301010
101000
000001
010100
,
110100
000000
001010
000000
100000
000000
110001
000000
210100
000000
000011
001010
301011
000000
100000
000000
,
010101
000000
110100
000000
000001
000000
001010
000000
201010
000000
010100
000101
310100
110000
000001
001010
,
101010
000011
010010
000000
100000
000000
000101
000000
010102
000000
101000
001010
101013
000000
000001
000000
,
110100
000000
010101
000000
100000
000000
001010
000000
201010
000000
000101
010100
300101
010010
000001
101000
,
001011
000000
010100
000000
000001
000000
101000
000000
001012
000000
010100
110000
010103
110000
000001
000000
,
101010
000011
001010
000000
000001
000000
110000
000000
010102
000000
110000
001010
101003
001010
000001
110000
,
010101
010100
000101
000000
001010
000000
000011
000000
010101
000000
110000
010010
101000
000000
001010
000000
,
110100
010100
101000
000001
210010
000000
310100
110000
,
101010
001010
110000
000001
210100
000000
300011
001010
,
110100
110000
001010
100000
010102
000000
202013
000000
,
000000
303011
000000
000000
000000
000000
000000
000000
,
000000
000000
000000
000000
,
000000
000000
000000
000000
,
000000
000000
000000
000000
,
000000
000000
000000
000000
,
000000
000000
000000
000000
,
000000
000000
000000
000000
,
000000
000000
000000
000000
,
000000
000000
000000
000000
,
000000
000000
000000
000000
;
